GaanBD24.pw | GaanBD24.Website, 7starhd,khatrimaza,downloadhub,9xmovies,khatrimaza,bdmusic23,bdmusic23.com,bdmusic23.pro,bdmusic23.info,bdmusic23.mobi,bdmusic,bd music

Chittagainga Powa Noakhailla Maiya (2018) Bengali Full Movie 720p

Uncategorized

IMDB: /10 votes

Report error

Chittagainga Powa Noakhailla Maiya (2018) Bengali Full Movie 720p.mp4

IMDB Link

General
Complete name : Chittagainga Powa Noakhailla Maiya (2018) Bengali Full Movie.mp4
Format : MPEG-4
Format profile : Base Media / Version 2
Codec ID : mp42 (mp42)
File size : 828 MiB
Duration : 2 h 43 min
Overall bit rate mode : Constant
Overall bit rate : 709 kb/s
Codirector : codirector
Production studio : studio

Video
Format : MPEG-4 Visual
Format settings, BVOP : Yes
Format settings, QPel : No
Format settings, GMC : No warppoints
Format settings, Matrix : Default (H.263)
Codec ID : 20
Duration : 2 h 43 min
Bit rate mode : Constant
Bit rate : 512 kb/s
Width : 720 pixels
Height : 300 pixels
Display aspect ratio : 2.40:1
Frame rate mode : Constant
Frame rate : 29.970 (30000/1001) FPS
Color space : YUV
Bit depth : 8 bits
Scan type : Progressive
Compression mode : Lossy
Bits/(Pixel*Frame) : 0.079
Stream size : 598 MiB (72%)

Audio
Format : AAC
Format/Info : Advanced Audio Codec
Format profile : LC
Codec ID : 40
Duration : 2 h 43 min
Bit rate mode : Constant
Bit rate : 192 kb/s
Channel(s) : 2 channels
Channel positions : Front: L R
Sampling rate : 44.1 kHz
Frame rate : 43.066 FPS (1024 SPF)
Compression mode : Lossy
Stream size : 224 MiB (27%)
Title : Stereo
Language : English








indishare Link

TheFilesLocker Link

OpenLoad Link

UserscLoud Link

ClicknupLoad Link

BDupload Link

UpPom Link

UploadBuzz Link

The post Chittagainga Powa Noakhailla Maiya (2018) Bengali Full Movie 720p appeared first on 7StarHD.Com.

Source:

No links available
No downloads available

Leave a Reply

Your email address will not be published. Required fields are marked *

Related movies